BEST SHARE CENTER

Inicio Reglas Map Comentar
 

Informacion

Chat

Encuestas

Que te gusta mirar mas? [?]

En linea ahora

{online}

Publicidad

Estadisticas

Publicidad

Amigos

Publicidad

RSS

Hasta el último hombre (2016) BRRip 720p Audio Dual Latino-Ingles Mega

Titulo Original: Hacksaw Ridge | Resolución: 1280×538 (720p) | Formato: MKVAudio #1: Ingles AC3 5.1 | Audio #2: Latino AC3 5.1 | Subtitulos: EspañolDuracion: 2Hr 19Min | Tamaño del Archivo: 2.09 GB

Sangre de mi sangre (2016) BRRip 720p Audio Dual Latino-Ingles , Mega

Titulo Original: Blood FatherResolución: 1280×538 (720p) | Formato: MKV | Audio #1: Ingles AC3 5.1 | Audio #2: Latino AC3 5.1Subtitulos: Español | Duracion: 1Hr 28Min | Tamaño del Archivo: 1.36 GB

Serie El Comandante HD Mega 2017 Estreno Capitulo 14 Descargar Gratis Online

 Serie El Comandante HD 720p Mega 2017 EstrenoCAPITULO 14Formato: MP4, mkvPeso: Capitulos 180 A 700 MBCalidad: 720p

El conjuro 2 [2016] Ts screener HQ Latino

El conjuro 2 [2016] Ts screener HQ Latino

 

Info

Título: Expediente Warren: El caso Enfield
Título original: The Conjuring 2
País: USA
Estreno en USA: 10/06/2016
Estreno en España: 17/06/2016
Productora: New Line Cinema, Warner Bros. Pictures
Director: James Wan
Guión: Chad Hayes, Carey Hayes, David Leslie Johnson, James Wan
Reparto: Vera Farmiga, Patrick Wilson, Frances O'Connor, Madison Wolfe, Lauren Esposito, Patrick McAuley, Benjamin Haigh, Maria Doyle Kennedy, Simon Delaney, Franka Potente, Simon McBurney

Sinopsis

Vera Farmiga y Patrick Wilson interpretan de nuevo a Lorraine y Ed Warren, quienes, en una de sus investigaciones paranormales más aterradoras, viajan al norte de Londres para ayudar a una madre soltera que vive sola con sus cuatro hijos en una casa plagada de espíritus malignos.

MediaInfo
Format                                   : AVI
Format/Info                              : Audio Video Interleave
File size                                : 1.53 GiB
Duration                                 : 2h 7mn
Overall bit rate                         : 1 723 Kbps
Writing library                          : VirtualDub build 35491/release

Video
ID                                       : 0
Format                                   : MPEG-4 Visual
Format profile                           : Advanced Simple@L5
Format settings, BVOP                    : 2
Format settings, QPel                    : No
Format settings, GMC                     : No warppoints
Format settings, Matrix                  : Default (H.263)
Muxing mode                              : Packed bitstream
Codec ID                                 : XVID
Codec ID/Hint                            : XviD
Duration                                 : 2h 7mn
Bit rate                                 : 1 585 Kbps
Width                                    : 720 pixels
Height                                   : 324 pixels
Display aspect ratio                     : 2.222
Frame rate                               : 23.976 fps
Color space                              : YUV
Chroma subsampling                       : 4:2:0
Bit depth                                : 8 bits
Scan type                                : Progressive
Compression mode                         : Lossy
Bits/(Pixel*Frame)                       : 0.283
Stream size                              : 1.41 GiB (92%)
Writing library                          : XviD 67

Audio
ID                                       : 1
Format                                   : MPEG Audio
Format version                           : Version 1
Format profile                           : Layer 3
Mode                                     : Joint stereo
Mode extension                           : MS Stereo
Codec ID                                 : 55
Codec ID/Hint                            : MP3
Duration                                 : 2h 7mn
Bit rate mode                            : Constant
Bit rate                                 : 128 Kbps
Channel count                            : 2 channels
Sampling rate                            : 48.0 KHz
Compression mode                         : Lossy
Stream size                              : 117 MiB (7%)
Alignment                                : Split accross interleaves
Interleave, duration                     : 42 ms (1.00 video frame)
Interleave, preload duration             : 500 ms

Imagenes

El conjuro 2 [2016] Ts screener HQ Latino

El conjuro 2 [2016] Ts screener HQ Latino

El conjuro 2 [2016] Ts screener HQ Latino

Atención! Usted no tiene permiso para ver este texto.... Primero debes Registrate!

 

 

 

El conjuro 2 [2016] Ts screener HQ Latino


El conjuro 2 [2016] Ts screener HQ Latino


www.tusprogramas.org/djmaomix


El conjuro 2 [2016] Ts screener HQ Latino


LINKS GRATIS (MAYOR VELOCIDAD DE DESCARGA ) PROTEGIDOS CON ACORTADOR

El conjuro 2 [2016] Ts screener HQ Latino

*******************
DESCARGA UPLOADED
*******************
PARTE 1

PARTE 2

PARTE 3



*******************



ANTES DE DESCARGAR DE MEGA DESACTIVAR EL BLOQUEADOR DE PUBLICIDAD PARA QUE NO TENGAN PROBLEMAS

El conjuro 2 [2016] Ts screener HQ Latino

*******************
DESCARGA  MULTIHOST

MEGA | TURBOBIT | UNLIMITZONE  | FILE DROPPER

*******************
PARTE 1

PARTE 2

PARTE 3


*******************





El conjuro 2 [2016] Ts screener HQ Latino




El conjuro 2 [2016] Ts screener HQ Latino




Estimado visitante , usted fue al sitio como usuario no registrado. Le animamos a registrarse o entrar en el sitio bajo su nombre.

Información

Usuarios que están en este grupo no pueden dejar comentarios en la página

Top ^
MXDONWLOADS.COM Copyright:
Traducido Por Slider324